Foro Perú 3.0 - Portal Interactivo
  • Perú 2.0
  • Ahora es Perú 3.0
  • (◕‿◕✿) (◕‿◕✿) (◕‿◕✿) (◕‿◕✿) (◕‿◕✿) (◕‿◕✿) (◕‿◕✿)
Calificación:
  • 0 voto(s) - 0 Media
  • 1
  • 2
  • 3
  • 4
  • 5
Neutron 3 101 - Mixing With Neutron 3 (2019)
#1
[Imagen: 1906161340480105.jpg]

Neutron 3 101 - Mixing With Neutron 3 (2019)
WEBRip | English | MP4 | 1920 x 1080 | AVC ~251 kbps | 30 fps
AAC 96 Kbps 44.1 KHz | 2 channels | 1h 24mn | 257 MB
Genre: eLearning Video / Sound Processing, Music Production
iZotope Neutron 3 is here with groundbreaking new features and improvements. Join audio expert Joe Albano in this course to learn about Neutron's innovative features, including the brand new Sculptor module and Mix Assistant.

Content:

Section 1: Introduction

1
Introduction
4m 2s
2
Neutron 3 Channel Strip
5m 27s

Section 2: Neutron 3 Modules

3
EQ
6m 43s
4
Compressor
6m 56s
5
Gate
5m 17s
6
Exciter
5m 41s
7
Transient Shaper
5m 18s
8
Output Section
4m 32s

Section 3: Intelligent Features

9
Sculptor
4m 25s
10
Masking Meter
6m 9s
11
Mix Assistant Track Enhance
4m 28s
12
Track Enhance settings
3m 29s

Section 4: IPC Mixing Tools

13
Relay
3m 14s
14
Visual Mixer
4m 11s
15
Mix Assistant Balance
5m 30s
16
Tonal Balance Control
5m 14s

Section 5: Wrap-Up
17
Wrap-up
2m 48s

General
Complete name : 2. Neutron 3 Channel Strip.mp4
Format : MPEG-4
Format profile : Base Media / Version 2
Codec ID : mp42 (mp42/isom/avc1)
File size : 13.8 MiB
Duration : 5 min 27 s
Overall bit rate : 354 kb/s
Encoded date : UTC 2019-06-11 10:36:39
Tagged date : UTC 2019-06-11 17:36:40
Writing application : Sorenson Squeeze
Comment : Encoded by

Video
ID : 2
Format : AVC
Format/Info : Advanced Video Codec
Format profile : Main@L4
Format settings : CABAC / 4 Ref Frames
Format settings, CABAC : Yes
Format settings, RefFrames : 4 frames
Codec ID : avc1
Codec ID/Info : Advanced Video Coding
Duration : 5 min 27 s
Bit rate : 251 kb/s
Width : 1 920 pixels
Height : 1 080 pixels
Display aspect ratio : 16:9
Frame rate mode : Constant
Frame rate : 30.000 FPS
Color space : YUV
Chroma subsampling : 4:2:0
Bit depth : 8 bits
Scan type : Progressive
Bits/(Pixel*Frame) : 0.004
Stream size : 9.80 MiB (71%)
Writing library : x264 core 129
Encoding settings : cabac=1 / ref=3 / deblock=1:0:0 / analyse=0x1:0x111 / me=hex / subme=7 / psy=1 / psy_rd=1.00:0.00 / mixed_ref=1 / me_range=16 / chroma_me=1 / trellis=1 / 8x8dct=0 / cqm=0 / deadzone=21,11 / fast_pskip=1 / chroma_qp_offset=-2 / threads=18 / lookahead_threads=3 / sliced_threads=0 / nr=0 / decimate=1 / interlaced=0 / bluray_compat=0 / constrained_intra=0 / bframes=3 / b_pyramid=2 / b_adapt=1 / b_bias=0 / direct=1 / weightb=1 / open_gop=0 / weightp=2 / keyint=300 / keyint_min=30 / scenecut=45 / intra_refresh=0 / rc_lookahead=40 / rc=crf / mbtree=1 / crf=23.0 / qcomp=0.60 / qpmin=0 / qpmax=69 / qpstep=4 / ip_ratio=1.40 / aq=1:1.00
Encoded date : UTC 2019-06-11 10:36:39
Tagged date : UTC 2019-06-11 10:36:39

Audio
ID : 1
Format : AAC
Format/Info : Advanced Audio Codec
Format profile : LC
Codec ID : mp4a-40-2
Duration : 5 min 27 s
Bit rate mode : Constant
Bit rate : 96.0 kb/s
Channel(s) : 2 channels
Channel positions : Front: L R
Sampling rate : 44.1 kHz
Frame rate : 43.066 FPS (1024 SPF)
Compression mode : Lossy
Stream size : 3.74 MiB (27%)
Encoded date : UTC 2019-06-11 10:36:39
Tagged date : UTC 2019-06-11 10:36:39

Other #1
ID : 3
Type : Scene description
Format : System Core
Codec ID : mp4s-02
Duration : 5 min 27 s
Encoded date : UTC 2019-06-11 10:36:40
Tagged date : UTC 2019-06-11 10:36:40

Other #2
ID : 4
Type : Object description
Format : System
Codec ID : mp4s-01
Duration : 5 min 27 s
Encoded date : UTC 2019-06-11 10:36:40
Tagged date : UTC 2019-06-11 10:36:40

Screenshots

[Imagen: 1906161340490122.jpg]

[Imagen: 1906161340500119.jpg]

[Imagen: 1906161340510107.jpg]


Download link:
Código:
https://rapidgator.net/file/bec2e9b8105f79341074441201b1ae4f/mr878.Neutron.3.101..Mixing.With.Neutron.3.2019.part1.rar.html
https://rapidgator.net/file/337dfdd9f172f1506135d55deac398d7/mr878.Neutron.3.101..Mixing.With.Neutron.3.2019.part2.rar.html
https://rapidgator.net/file/02f4db8e7360f4567d20a311de42fd33/mr878.Neutron.3.101..Mixing.With.Neutron.3.2019.part3.rar.html


http://nitroflare.com/view/95FBEE51B6ACBFA/mr878.Neutron.3.101..Mixing.With.Neutron.3.2019.part1.rar
http://nitroflare.com/view/F69B6A8583B0377/mr878.Neutron.3.101..Mixing.With.Neutron.3.2019.part2.rar
http://nitroflare.com/view/293FF40BD27CC39/mr878.Neutron.3.101..Mixing.With.Neutron.3.2019.part3.rar


https://uploadgig.com/file/download/100c4167dcd0F0a6/mr878.Neutron.3.101..Mixing.With.Neutron.3.2019.part1.rar
https://uploadgig.com/file/download/f940d7498a7f7e52/mr878.Neutron.3.101..Mixing.With.Neutron.3.2019.part2.rar
https://uploadgig.com/file/download/2edA02B8fe6ed0Ea/mr878.Neutron.3.101..Mixing.With.Neutron.3.2019.part3.rar

Links are Interchangeable - No Password - Single Extraction
Gracias dadas por:
Posibles temas similares...
Tema
Autor
  /  
Último mensaje

Salto de foro:
HTML Comment Box is loading comments...